Contattami | Download Now | Elizabeth Becka

Space Babes From Outer Space 2018 BRRip x264 [MW]

  • Category Movies
  • Type h.264/x264
  • Language English
  • Total size 803.5 MB
  • Uploaded By moviezworldz
  • Downloads 58
  • Last checked 29 minutes ago
  • Date uploaded 7 hours ago
  • Seeders 30
  • Leechers 24

Infohash : E373BF496DD99882CCBC3A1DE731C689B667290D





General
Format : Matroska
Format version : Version 4 / Version 2
File size : 804 MiB
Duration : 1 h 21 min
Overall bit rate : 1 376 kb/s

Video
ID : 1
Format : AVC
Format/Info : Advanced Video Codec
Format profile : [email protected]
Format settings : CABAC / 4 Ref Frames
Format settings, CABAC : Yes
Format settings, RefFrames : 4 frames
Codec ID : V_MPEG4/ISO/AVC
Duration : 1 h 21 min
Bit rate : 1 200 kb/s
Width : 720 pixels
Height : 304 pixels
Display aspect ratio : 2.35:1
Frame rate mode : Constant
Frame rate : 23.976 (24000/1001) FPS
Color space : YUV
Chroma subsampling : 4:2:0
Bit depth : 8 bits
Scan type : Progressive
Bits/(Pixel*Frame) : 0.229
Stream size : 690 MiB (86%)
Writing library : x264 core 155 r2901 7d0ff22
Default : Yes
Forced : No

Audio
ID : 2
Format : AAC
Format/Info : Advanced Audio Codec
Format profile : LC
Codec ID : A_AAC-2
Duration : 1 h 21 min
Bit rate : 192 kb/s
Channel(s) : 2 channels
Channel positions : Front: L R
Sampling rate : 48.0 kHz
Frame rate : 46.875 FPS (1024 SPF)
Compression mode : Lossy
Stream size : 112 MiB (14%)
Language : English
Default : Yes
Forced : No


Click To Enlarge Image







Files:

Space Babes From Outer Space 2018 BRRip x264 [MW]
  • Space Babes From Outer Space 2018 BRRip x264 [MW].mkv (803.5 MB)

There are currently no comments. Feel free to leave one :)

Code:

  • udp://tracker.coppersurfer.tk:6969/announce
  • udp://tracker.pirateparty.gr:6969/announce
  • udp://tracker.coppersurfer.tk:6969/announce
  • udp://tracker.tiny-vps.com:6969/announce
  • udp://9.rarbg.me:2740/announce
  • udp://9.rarbg.to:2790/announce
  • udp://public.popcorn-tracker.org:6969/announce
  • udp://tracker.vanitycore.co:6969/announce
  • udp://tracker.opentrackr.org:1337/announce
  • udp://open.stealth.si:80/announce