Game of Thrones S04 Complete Season 4 720p HDTV-PSYPHER | WhatsApp Inc. | Pare-feu

Searching 2018 Movies 720p HDRip x264 AAC with Sample ☻rDX☻

  • Category Movies
  • Type HD
  • Language English
  • Total size 853.6 MB
  • Uploaded By nehalpuja
  • Downloads 119
  • Last checked 44 minutes ago
  • Date uploaded 9 hours ago
  • Seeders 61
  • Leechers 54

Searching

DramaThriller

After his 16-year-old daughter goes missing, a desperate father breaks into her laptop to look for clues to find her. A thriller that unfolds entirely on computer screens.

Infohash : 570F93A24A18A05EB4F34546E49D08E92F7A3FC8

Searching 2018 Movies 720p HDRip x264 AAC with Sample ☻rDX☻
===============================================================================================

SCREEN SHOTS:



or

http://iphonehosting.eu/2018/10/stockmarket/1.html

File size : 844 MiB
Duration : 1 h 42 min
Overall bit rate : 1 156 kb/s
Movie name : Searching 2018 Movies 720p HDRip x264 AAC ☻rDX☻

Video
ID : 2
Format : AVC
Format/Info : Advanced Video Codec
Format profile : [email protected]
Format settings, CABAC : Yes
Format settings, ReFrames : 4 frames
Codec ID : V_MPEG4/ISO/AVC
Duration : 1 h 42 min
Bit rate : 1 100 kb/s
Width : 1 280 pixels
Height : 720 pixels
Display aspect ratio : 16:9
Frame rate mode : Constant
Frame rate : 30.000 FPS
Color space : YUV
Chroma subsampling : 4:2:0
Bit depth : 8 bits
Scan type : Progressive
Bits/(Pixel*Frame) : 0.040
Stream size : 781 MiB (92%)
Title : ☻rDX☻

Audio
ID : 1
Format : MPEG Audio
Format version : Version 1
Format profile : Layer 3
Mode : Joint stereo
Mode extension : MS Stereo
Codec ID : A_MPEG/L3
Codec ID/Hint : MP3
Duration : 1 h 42 min
Bit rate mode : Constant
Bit rate : 64.0 kb/s
Channel(s) : 2 channels
Sampling rate : 44.1 kHz
Compression mode : Lossy
Stream size : 46.8 MiB (6%)
Title : ☻rDX☻
Writing library : LAMEUUULAME3.99.5
Default : Yes
Forced : No

http://www.imdb.com/title/tt7668870

Files:

Searching 2018 Movies 720p HDRip x264 AAC with Sample ☻rDX☻
  • Sample ~ Searching 2018 Movies 720p HDRip x264 AAC ☻rDX☻.mkv (9.3 MB)
  • Searching 2018 Movies 720p HDRip x264 AAC ☻rDX☻.mkv (844.3 MB)

There are currently no comments. Feel free to leave one :)

Code:

  • udp://tracker.coppersurfer.tk:6969/announce
  • udp://tracker.leechers-paradise.org:6969/announce
  • udp://tracker.pirateparty.gr:6969/announce
  • udp://eddie4.nl:6969/announce
  • udp://tracker.zer0day.to:1337/announce
  • udp://9.rarbg.me:2710/announce
  • udp://9.rarbg.to:2710/announce
  • udp://public.popcorn-tracker.org:6969/announce
  • udp://p4p.arenabg.ch:1337/announce
  • udp://tracker.vanitycore.co:6969/announce
  • udp://ipv4.tracker.harry.lu:80/announce
  • udp://tracker.opentrackr.org:1337/announce
  • udp://p4p.arenabg.com:1337/announce
  • udp://shadowshq.yi.org:6969/announce