Stand-up ; Spectacle | GO-JEK1 millions | July 2015

Mamma Mia! (2008).720p.H264.italian.english.Ac3-5.1.sub.ita.itafo...

  • Category Movies
  • Type HD
  • Language English
  • Total size 2.2 GB
  • Uploaded By robbyrs
  • Downloads 0
  • Last checked 30 minutes ago
  • Date uploaded 31 minutes ago
  • Seeders 0
  • Leechers 0

Infohash : 3BA0E44298580A79615D59ECA56478E25D609D71

Mamma Mia! (2008).720p.H264.italian.english.Ac3-5.1.sub.ita.itaforced.eng-MIRCrew


NO FOUND ONLY ORIGINAL RELEASE



My release is always in double track audio italian and Original audio
for select it use VLC or dvd player home
not use wmp

Presenti i sottotitoli italiani per il cantato

Mamma Mia! (2008)

Quality MIRCrew on HD 720p da 1,9 gb








Paese di produzione Stati Uniti d'America, Regno Unito, Germania
Anno 2008
Durata 108 min
Rapporto 2,35 : 1
Genere commedia, sentimentale, musicale
Regia Phyllida Lloyd
Soggetto Catherine Johnson
Sceneggiatura Catherine Johnson



Meryl Streep: Donna Sheridan
Amanda Seyfried: Sophie Sheridan
Pierce Brosnan: Sam Carmichael
Colin Firth: Harry Bright
Stellan Skarsgård: Bill Anderson
Julie Walters: Rosie
Christine Baranski: Tanya
Dominic Cooper: Sky
Philip Michael: Pepper
Rachel McDowall: Lisa
Ashley Lilley: Ali
Niall Buggy: padre Alex



La ventenne Sophie, che è in procinto di sposarsi con l'amato Sky, vive sulla piccola isola di Kalokairi, in Grecia, dove assieme alla madre Donna gestisce un hotel chiamato Villa Donna. Sophie sente che nella vita le è sempre mancato qualcosa, dato che non ha conosciuto l'identità del padre; trova quindi un vecchio diario della madre, in cui viene raccontata la gioventù di Donna, che nel periodo precedente alla sua nascita frequentava tre uomini diversi. Credendo che uno dei tre possa essere suo padre, all'insaputa della madre, spedisce gli inviti di matrimonio ai tre uomini



Set on a colorful Greek island, the plot serves as a background for a wealth of ABBA songs. A young woman about to be married discovers that any one of three men could be her father. She invites all three to the wedding without telling her mother, Donna, who was once the lead singer of Donna and the Dynamos. In the meantime, Donna has invited her backup singers, Rosie and Tanya.












General
Unique ID : 160245536582054574113986610762456092614 (0x788E2AF0BB6081E0DED9DDD84FA9CFC6)
Complete name : Mamma Mia! (2008).720p.h264.ita.eng.sub.ita.eng-MIRCrew\Mamma Mia! (2008).720p.h264.ita.eng.sub.ita.eng-MIRCrew.mkv
Format : Matroska
Format version : Version 2
File size : 2.18 GiB
Duration : 1h 48mn
Overall bit rate : 2 870 Kbps
Movie name : MIRCrew
Encoded date : UTC 2018-09-07 17:35:29
Writing application : Lavf54.63.100
Writing library : Lavf54.63.100
COPYRIGHT : robbyrs

Video
ID : 1
Format : AVC
Format/Info : Advanced Video Codec
Format profile : [email protected]
Format settings, CABAC : Yes
Format settings, ReFrames : 2 frames
Codec ID : V_MPEG4/ISO/AVC
Duration : 1h 48mn
Bit rate : 2 000 Kbps
Width : 1 264 pixels
Height : 528 pixels
Display aspect ratio : 2.40:1
Frame rate mode : Variable
Frame rate : 23.976 fps
Color space : YUV
Chroma subsampling : 4:2:0
Bit depth : 8 bits
Scan type : Progressive
Bits/(Pixel*Frame) : 0.125
Stream size : 1.45 GiB (67%)
Writing library : x264 core 130 r2273
Encoding settings : cabac=1 / ref=2 / deblock=1:0:0 / analyse=0x1:0x131 / me=hex / subme=7 / psy=1 / psy_rd=1.00:0.00 / mixed_ref=0 / me_range=16 / chroma_me=1 / trellis=1 / 8x8dct=0 / cqm=0 / deadzone=21,11 / fast_pskip=1 / chroma_qp_offset=-2 / threads=3 / lookahead_threads=1 / sliced_threads=0 / nr=0 / decimate=1 / interlaced=0 / bluray_compat=0 / constrained_intra=0 / bframes=3 / b_pyramid=0 / b_adapt=1 / b_bias=0 / direct=3 / weightb=1 / open_gop=0 / weightp=2 / keyint=230 / keyint_min=23 / scenecut=40 / intra_refresh=0 / rc_lookahead=40 / rc=abr / mbtree=1 / bitrate=2000 / ratetol=1.0 / qcomp=0.60 / qpmin=10 / qpmax=69 / qpstep=4 / vbv_maxrate=24000 / vbv_bufsize=24000 / nal_hrd=none / ip_ratio=1.40 / aq=1:1.00
Language : Italian
Default : Yes
Forced : No
DURATION : 01:48:38.137000000
NUMBER_OF_FRAMES : 156279
NUMBER_OF_BYTES : 7223491434
_STATISTICS_WRITING_APP : mkvmerge v7.2.0 ('On Every Street') 64bit built on Sep 13 2014 15:52:10
_STATISTICS_WRITING_DATE_UTC : 2014-09-22 12:22:52
_STATISTICS_TAGS : BPS DURATION NUMBER_OF_FRAMES NUMBER_OF_BYTES

Audio #1
ID : 2
Format : AC-3
Format/Info : Audio Coding 3
Mode extension : CM (complete main)
Codec ID : A_AC3
Duration : 1h 48mn
Bit rate mode : Constant
Bit rate : 448 Kbps
Channel(s) : 6 channels
Channel positions : Front: L C R, Side: L R, LFE
Sampling rate : 48.0 KHz
Bit depth : 16 bits
Compression mode : Lossy
Delay relative to video : 1mn 5s
Stream size : 348 MiB (16%)
Title : Ita Ac-3 5.1
Language : Italian
Default : Yes
Forced : No
DURATION : 01:48:38.144000000
NUMBER_OF_FRAMES : 203692
NUMBER_OF_BYTES : 521451520
_STATISTICS_WRITING_APP : mkvmerge v7.2.0 ('On Every Street') 64bit built on Sep 13 2014 15:52:10
_STATISTICS_WRITING_DATE_UTC : 2014-09-22 12:22:52
_STATISTICS_TAGS : BPS DURATION NUMBER_OF_FRAMES NUMBER_OF_BYTES

Audio #2
ID : 3
Format : AC-3
Format/Info : Audio Coding 3
Mode extension : CM (complete main)
Codec ID : A_AC3
Duration : 1h 48mn
Bit rate mode : Constant
Bit rate : 448 Kbps
Channel(s) : 6 channels
Channel positions : Front: L C R, Side: L R, LFE
Sampling rate : 48.0 KHz
Bit depth : 16 bits
Compression mode : Lossy
Delay relative to video : 1mn 5s
Stream size : 348 MiB (16%)
Title : Eng Ac-3 5.1
Language : English
Default : No
Forced : No
DURATION : 01:48:38.144000000
NUMBER_OF_FRAMES : 203692
NUMBER_OF_BYTES : 521451520
_STATISTICS_WRITING_APP : mkvmerge v7.2.0 ('On Every Street') 64bit built on Sep 13 2014 15:52:10
_STATISTICS_WRITING_DATE_UTC : 2014-09-22 12:22:52
_STATISTICS_TAGS : BPS DURATION NUMBER_OF_FRAMES NUMBER_OF_BYTES

Menu
00:00:00.000 : :Capitolo 01
00:04:37.902 : :Capitolo 02
00:14:51.098 : :Capitolo 03
00:25:44.084 : :Capitolo 04
00:30:39.379 : :Capitolo 05
00:35:26.332 : :Capitolo 06
00:40:25.131 : :Capitolo 07
00:44:36.382 : :Capitolo 08
00:47:49.908 : :Capitolo 09
00:51:19.117 : :Capitolo 10
00:56:27.675 : :Capitolo 11
01:04:03.297 : :Capitolo 12
01:08:05.372 : :Capitolo 13
01:14:43.645 : :Capitolo 14
01:20:18.688 : :Capitolo 15
01:29:58.851 : :Capitolo 16
01:32:18.699 : :Capitolo 17
01:34:13.606 : :Capitolo 18
01:39:12.613 : :Capitolo 19
01:43:40.339 : :Capitolo 20
01:48:37.886 : :Capitolo 21






Files:

Mamma Mia! (2008).720p.h264.ita.eng.sub.ita.eng-MIRCrew
  • Mamma Mia! (2008).720p.h264.ita.eng.sub.ita.eng-MIRCrew.eng.idx (73.8 KB)
  • Mamma Mia! (2008).720p.h264.ita.eng.sub.ita.eng-MIRCrew.eng.sub (10.2 MB)
  • Mamma Mia! (2008).720p.h264.ita.eng.sub.ita.eng-MIRCrew.idx (29.3 KB)
  • Mamma Mia! (2008).720p.h264.ita.eng.sub.ita.eng-MIRCrew.ita.idx (67.7 KB)
  • Mamma Mia! (2008).720p.h264.ita.eng.sub.ita.eng-MIRCrew.ita.sub (9.1 MB)
  • Mamma Mia! (2008).720p.h264.ita.eng.sub.ita.eng-MIRCrew.mkv (2.2 GB)
  • Mamma Mia! (2008).720p.h264.ita.eng.sub.ita.eng-MIRCrew.sub (3.5 MB)

There are currently no comments. Feel free to leave one :)

Code:

  • udp://tracker.coppersurfer.tk:6969/announce
  • udp://tracker.torrent.eu.org:451/announce
  • udp://tracker.pirateparty.gr:6969/announce
  • udp://tracker.opentrackr.org:1337/announce
  • udp://tracker.leechers-paradise.org:6969/announce
  • udp://tracker.eddie4.nl:6969/announce
  • udp://shadowshq.yi.org:6969/announce
  • udp://shadowshq.eddie4.nl:6969/announce
  • udp://inferno.demonoid.pw:3391/announce
  • udp://eddie4.nl:6969/announce
  • udp://9.rarbg.to:2730/announce
  • udp://9.rarbg.com:2710/announce
  • udp://9.rarbg.me:2780/announce
  • udp://62.138.0.158:6969/announce
  • udp://151.80.120.114:2710/announce